[电影] 康纳·麦格雷戈:臭名昭著 2017.720p.WEB-DL.DD5.1.H264-FGT 2.76GB

Conor.McGregor.Notorious.2017.720p.WEB-DL.DD5.1.H264-FGT

◎译  名 康纳·麦格雷戈:臭名昭著

◎片  名 Conor McGregor: Notorious

◎年  代 2017

◎产  地 美国

◎类  别纪录片

◎语  言 英语

◎上映日期 2017-11-08(美国)

◎IMDb评分 6.2/10 from 244 users

◎IMDb链接 http://www.imdb.com/title/tt7518466/

◎片  长 90分钟

◎导  演 Gavin Fitzgerald

◎主  演 Conor McGregor

◎简  介

CONOR McGREGOR: NOTORIOUS, filmed over the course of 4 years, is a gripping access-all- areas account of McGregor's personal and professional journey from claiming benefits and living in his mum's spare room with his girlfriend to claiming multiple championship belts and 9-figure pay packets. Featuring exclusive interviews, unprecedented access and fight footage, this is the ultimate behind-the- scenes look at a sporting icon and his meteoric rise.

Video
ID : 1
Format : AVC
Format/Info : Advanced Video Codec
Format profile : [email protected]
Format settings : 2 Ref Frames
Format settings, CABAC : No
Format settings, ReFrames : 2 frames
Codec ID : V_MPEG4/ISO/AVC
Duration : 1 h 30 min
Bit rate : 3 911 kb/s
Width : 1 280 pixels
Height : 532 pixels
Display aspect ratio : 2.40:1
Frame rate mode : Constant
Frame rate : 23.976 (24000/1001) FPS
Color space : YUV
Chroma subsampling : 4:2:0
Bit depth : 8 bits
Scan type : Progressive
Bits/(Pixel*Frame) : 0.240
Stream size : 2.47 GiB (89%)
Title : Conor.McGregor.Notorious.2017.720p.WEB-DL.DD5.1.H264-FGT
Language : English
Default : Yes
Forced : No
Color range : Limited
Color primaries : BT.709
Transfer characteristics : BT.709
Matrix coefficients : BT.709

Audio
ID : 2
Format : AC-3
Format/Info : Audio Coding 3
Codec ID : A_AC3
Duration : 1 h 30 min
Bit rate mode : Constant
Bit rate : 384 kb/s
Channel(s) : 6 channels
Channel positions : Front: L C R, Side: L R, LFE
Sampling rate : 48.0 kHz
Frame rate : 31.250 FPS (1536 SPF)
Bit depth : 16 bits
Compression mode : Lossy
Stream size : 248 MiB (9%)
Title : Conor.McGregor.Notorious.2017.720p.WEB-DL.DD5.1.H264-FGT
Language : English
Service kind : Complete Main
Default : Yes
Forced : No

[网盘分流]
请大家从网盘下载后将文件移至BT或电驴文件夹用eMule做种,让更多人下载
网盘下载 :
http://www.88pan.cc/file-411406.html|http://www.feemoo.com/file-1620901.html|http://www.yimuhe.com/file-4200941.html




看完文章or资源,小编奖励大家支付宝红包一个,可领高达99块,每天都能领一次,支付宝举办的,100%安全。

已有6187人领取了红包,红包使用方法,请戳>>

扫码关注资源坊68bt.cc

本博客所有文章如无特别注明均为转载于网络,版权为原作者所有如侵权请在相应文章下留言谢谢合作。
复制或转载请以超链接形式注明转自 CC下载站友情提示:微信扫码可订阅本博客!
原文地址《[电影] 康纳·麦格雷戈:臭名昭著 2017.720p.WEB-DL.DD5.1.H264-FGT 2.76GB

相关推荐

发表评论

路人甲 表情
看不清楚?点图切换 Ctrl+Enter快速提交

网友评论(0)